<?xml version="1.0" standalone="no"?>
<!DOCTYPE svg PUBLIC "-//W3C//DTD SVG 1.1//EN" "http://www.w3.org/Graphics/SVG/1.1/DTD/svg11.dtd" >
<svg xmlns="http://www.w3.org/2000/svg">
<metadata>
This is a custom SVG webfont generated by Font Squirrel.
Copyright   : Copyright c 2010 Yanone httpyanonedetypedesign All rights reservedThis Font Software is licensed under the SIL Open Font License Version 11This license is available with a FAQ at httpscriptssilorgOFL
Designer    : Yanone
Foundry     : Yanone
Foundry URL : httpyanonedetypedesign
</metadata>
<defs>
<font id="webfont1BSMunJa" horiz-adv-x="851" >
<font-face units-per-em="2048" ascent="1638" descent="-410" />
<missing-glyph horiz-adv-x="319" />
<glyph unicode=" "  horiz-adv-x="319" />
<glyph unicode="&#x09;" horiz-adv-x="319" />
<glyph unicode="&#xa0;" horiz-adv-x="319" />
<glyph unicode="!" horiz-adv-x="397" d="M86 102q0 49 30.5 84t82.5 35q115 0 114 -119q0 -45 -32 -82q-31 -35 -82 -34q-113 -1 -113 116zM92 1397q-4 37 37 43q40 6 190 6l-32 -930q-4 -53 -33 -65q-31 -12 -133 -13z" />
<glyph unicode="&#x22;" horiz-adv-x="538" d="M70 1602q14 8 63 8q63 0 94 -6q0 -76 -16 -240q-14 -152 -27 -164l-92 -6q-42 396 -22 408zM319 1602q14 8 66 8q63 0 94 -6q0 -76 -16 -240q-14 -152 -27 -164l-92 -6q-8 39 -22 215q-15 183 -3 193z" />
<glyph unicode="#" d="M55 389q0 86 6.5 108.5t28.5 22.5h86l10 217h-131q0 86 6.5 108.5t28.5 22.5h105l6 129q2 20 30 27q28 6 117 6l-8 -162h195l6 129q2 20 30 27q28 6 117 6l-8 -162h119q0 -113 -15 -125q-6 -6 -18 -6h-94l-10 -217h137q0 -115 -15 -127q-4 -4 -18 -4h-113l-6 -137 q-4 -23 -31 -29q-18 -4 -116 -4l8 170h-195l-6 -137q-4 -23 -31 -29q-18 -4 -116 -4l8 170h-113zM322 520h194l10 217h-194z" />
<glyph unicode="$" d="M106 76q0 18 13 65q12 43 33 68q76 -59 217 -59q190 0 190 174q0 57 -24 102q-25 47 -89 113l-229 233q-109 115 -108 227q0 109 67 177q66 66 193 84v182q0 41 37 53q43 14 114 14v-247q72 -4 121 -19q57 -18 70 -29q20 -16 20 -24q0 -66 -41 -117q-61 43 -201 43 q-199 0 -198 -115q0 -74 88 -163l248 -248q117 -117 116 -268q0 -281 -258 -328v-178q0 -41 -34 -54q-34 -12 -117 -12v236q-63 2 -127 20q-55 14 -78 35q-23 19 -23 35z" />
<glyph unicode="%" horiz-adv-x="1413" d="M90 1075q0 375 291 375q141 0 206.5 -82t65.5 -291q0 -383 -284 -383q-96 0 -153.5 29t-90.5 111q-35 87 -35 241zM238 47l825 1405q94 -31 94 -72q0 -10 -203 -360l-409 -692l-205 -344q-102 28 -102 63zM250 1071q0 -145 28.5 -196.5t94.5 -51.5q127 0 127 252 q0 143 -29 194.5t-90 51.5q-65 0 -98 -55q-33 -54 -33 -195zM762 362q0 375 291 375q141 0 206.5 -82t65.5 -290q0 -383 -285 -383q-98 0 -155.5 28.5t-89.5 110.5q-33 83 -33 241zM920 354q0 -147 28 -198q27 -49 94 -50q129 0 129 252q0 143 -28.5 194.5t-91.5 51.5 q-65 0 -99 -55q-32 -54 -32 -195z" />
<glyph unicode="&#x26;" horiz-adv-x="1026" d="M53 348q0 121 64 221q61 98 166 164q-160 273 -160 430q0 135 90 209q89 74 252 74q129 0 219 -29q88 -29 88 -67q0 -70 -41 -123q-106 72 -246 71q-90 0 -139 -30q-47 -29 -47 -125q0 -102 121 -316q119 -211 280 -415q16 88 17 184q0 268 -123 420q88 16 235 16 q88 0 158 -6q6 -12 6 -61q0 -37 -18.5 -55.5t-67.5 -18.5h-100q72 -131 72 -316q0 -172 -52 -313q111 -125 170 -149q-2 -45 -41 -90q-37 -43 -67 -43q-33 0 -150 129q-113 -129 -305 -129q-381 -1 -381 368zM225 344q0 -90 47 -149q45 -57 152 -58q133 0 207 99 q-131 158 -275 376q-131 -94 -131 -268z" />
<glyph unicode="'" horiz-adv-x="286" d="M70 1602q14 8 63 8q63 0 94 -6q0 -76 -16 -240q-14 -152 -27 -164l-92 -6q-42 396 -22 408z" />
<glyph unicode="(" horiz-adv-x="595" d="M133 655q0 180 33 365q29 158 76 280q45 117 92 193t84 117q33 35 45 35q41 0 59 -23q16 -18 33 -84q-252 -332 -252 -876q-2 -319 78 -576q82 -258 174 -362q-23 -123 -92 -123q-15 0 -49 37q-29 31 -82 124q-49 86 -92 203q-47 127 -76 301q-31 184 -31 389z" />
<glyph unicode=")" horiz-adv-x="595" d="M43 -276q101 138 178 374q76 236 74 564q0 283 -72 516q-70 227 -180 360q16 66 33 84q18 23 59 23q12 0 45 -33q31 -31 84 -117q47 -78 92 -188q45 -115 76 -283q33 -184 33 -369q0 -197 -31 -374q-29 -166 -76 -297q-43 -120 -92 -209q-51 -92 -84 -131 q-37 -43 -47 -43q-70 0 -92 123z" />
<glyph unicode="*" horiz-adv-x="960" d="M33 1030q-3 71 37 111q39 39 71 24l267 -168q4 -35 -11 -51q-12 -16 -39 -6zM135 614l248 252q35 35 76 -16l-180 -320q-33 -33 -74 -2q-39 29 -70 86zM406 1366q-4 23 16 35q16 10 45 10q53 0 102 -25l-41 -323q-4 -27 -16 -33q-14 -6 -59 2zM508 860q8 14 47 29 l236 -277q28 -34 -19 -67q-45 -33 -102 -43l-160 323q-10 23 -2 35zM573 932q-43 57 5 82l303 164q49 -40 49 -111q0 -47 -31 -57z" />
<glyph unicode="+" d="M70 504q0 89 6 117q6 29 28 28h252v252q0 25 29 31q18 4 117 4v-287h284q0 -80 -4 -117q-4 -29 -28 -28h-252v-252q0 -23 -29 -29q-18 -4 -117 -4v285h-286z" />
<glyph unicode="," horiz-adv-x="372" d="M78 -164q51 84 57 176q-47 29 -47 101q0 47 29 75q31 31 76 31q113 0 112 -123q0 -100 -63 -202q-65 -104 -99 -105q-55 0 -65 47z" />
<glyph unicode="-" horiz-adv-x="567" d="M76 504q0 89 6 117q6 29 27 28h385q0 -98 -5 -117q-6 -29 -30 -28h-383z" />
<glyph unicode="." horiz-adv-x="372" d="M76 104q0 51 30 84q31 35 84 35q115 0 115 -119q0 -51 -30.5 -83.5t-84.5 -32.5q-114 -1 -114 116z" />
<glyph unicode="/" horiz-adv-x="684" d="M20 -41l461 1563q6 22 19 30q12 10 45 13q23 2 121 2l-461 -1567q-10 -29 -35 -35q-27 -6 -150 -6z" />
<glyph unicode="0" d="M59 606q0 309 91 467q88 156 282.5 156t280.5 -142q84 -137 84 -432q0 -346 -84 -509.5t-291 -163.5q-203 0 -283 151q-80 150 -80 473zM238 594q0 -254 43 -358q43 -102 145 -102.5t149 122.5q47 125 48 401q0 223 -39 322q-41 102 -144 102q-113 0 -157.5 -120.5 t-44.5 -366.5z" />
<glyph unicode="1" d="M57 115q0 43 295 43l23 899q-25 0 -90 -10q-55 -8 -101 -19l-43 -8q-25 49 -24 108q0 20 164 60q170 41 225 41q31 0 47 -10l-27 -1061h152l119 6v-74q0 -8 -3 -26.5t-3 -20.5q-2 -25 -11 -35q-6 -8 -18 -8h-701q-4 86 -4 115z" />
<glyph unicode="2" d="M59 51q0 43 9 66q6 18 41 80q53 86 147 206l156 189q74 88 116 168q49 92 50 168q0 141 -158 141q-178 0 -299 -72q-20 43 -21 123q0 41 109 74q115 35 254 35q170 0 237 -68q66 -66 66 -211q0 -98 -49 -202q-47 -98 -117 -183l-164 -196q-106 -129 -157 -211h274l242 14 q0 -106 -6.5 -139t-28.5 -33h-694q-7 24 -7 51z" />
<glyph unicode="3" d="M86 1118q0 41 100.5 76t253.5 35q285 0 285 -244q0 -209 -223 -369q123 -12 196.5 -85.5t73.5 -219.5q0 -248 -129 -383q-127 -133 -334 -133q-106 0 -164 29q-55 29 -55 72q0 39 23 122q72 -63 200 -63q133 0 207 98.5t74 253.5q0 211 -326 211l-4 107q133 63 201 143 q72 84 72 168q0 133 -148 133q-162 0 -280 -72v-2q-23 49 -23 123z" />
<glyph unicode="4" d="M57 414q0 88 158 395q160 311 268 403q35 29 76 29q55 0 94 -24l-6 -795l152 6q8 -14 8 -59q-4 -102 -55 -103h-105v-213q0 -41 -20.5 -47t-145.5 -6v266h-370q-54 54 -54 148zM201 422h280l23 590q-84 -96 -174 -273q-94 -184 -129 -317z" />
<glyph unicode="5" d="M70 -121q0 83 18 135q70 -63 199 -63q160 0 235 119q78 121 78 292q0 166 -80 227.5t-237 61.5q-90 0 -197 -26l59 604h627q0 -94 -16 -123q-14 -27 -72 -27l-397 8l-31 -307q68 10 119 11q401 6 401 -394q0 -283 -116.5 -442.5t-356.5 -159.5q-82 0 -133 15 q-55 14 -78 34q-22 19 -22 35z" />
<glyph unicode="6" d="M63 631q0 807 465 807q223 0 224 -70q0 -72 -17 -119q-86 31 -192 31q-298 0 -320 -528q92 147 281 147q137 0 217 -96q80 -95 80 -301q0 -518 -389 -518q-92 0 -156 30q-70 33 -104 80q-37 49 -56 139q-23 104 -26 177q-7 89 -7 221zM223 582q-4 -244 43 -344 q49 -106 154 -107q102 0 159.5 94t57.5 242q0 279 -182 278q-133 0 -232 -151v-12z" />
<glyph unicode="7" d="M90 1229h737q-215 -422 -331 -746q-121 -334 -162 -663q-100 0 -133 8q-37 9 -37 37q39 303 172 659q131 354 264 561q-117 -6 -463 -6q-47 0 -47 150z" />
<glyph unicode="8" d="M63 377q0 129 64 229q66 102 170 164q-98 66 -133 109q-86 83 -86 215q0 168 100.5 260t249.5 92q365 0 365 -332q0 -209 -222 -358q84 -68 109 -94q121 -127 121 -289q0 -168 -92.5 -278.5t-264.5 -110.5q-197 0 -289 108.5t-92 284.5zM219 385q0 -113 57 -176 q59 -66 158 -66q94 0 149.5 61.5t55.5 172.5q0 127 -92 207q-37 37 -117 94q-211 -107 -211 -293zM246 1104q0 -101 80 -166q37 -37 123 -96q190 123 190 266q0 90 -53.5 135t-134.5 45q-88 0 -148 -47q-57 -45 -57 -137z" />
<glyph unicode="9" d="M55 733q0 514 389 514q213 0 281 -133q66 -127 72 -506q-2 -420 -127 -620q-123 -201 -387 -201q-184 0 -185 68q0 49 15 112q63 -20 149 -20q184 0 268 135q82 133 101 383q-94 -143 -277 -143q-133 0 -217 108q-82 106 -82 303zM219 754q0 -131 49 -205t135 -74 q135 0 234 148v12q0 244 -39 356q-37 109 -152 109q-106 0 -167 -88q-60 -86 -60 -258z" />
<glyph unicode=":" horiz-adv-x="372" d="M76 104q0 51 30 84q31 35 84 35q115 0 115 -119q0 -51 -30.5 -83.5t-84.5 -32.5q-114 -1 -114 116zM76 791q0 49 30.5 83.5t83.5 34.5q115 0 115 -118q0 -49 -31 -84q-31 -33 -84 -33q-114 0 -114 117z" />
<glyph unicode=";" horiz-adv-x="372" d="M70 -164q51 90 57 176q-47 29 -47 101q0 43 29 75q28 31 73 31q113 0 113 -123q0 -98 -61.5 -202.5t-98.5 -104.5q-55 0 -65 47zM72 791q0 47 32 83q31 35 82 35q115 0 115 -118q0 -49 -31 -84q-31 -33 -84 -33q-114 0 -114 117z" />
<glyph unicode="&#x3c;" horiz-adv-x="817" d="M80 528q0 61 53 90l541 265q57 -53 59 -113q0 -34 -31 -49l-405 -199l440 -196q-2 -51 -26 -90q-25 -41 -47 -41q-14 0 -58 16l-500 221q-26 45 -26 96z" />
<glyph unicode="=" d="M70 313q0 89 6 117q6 29 28 29h682q0 -80 -4 -117q-4 -29 -28 -29h-684zM70 694q0 89 6 117q6 29 28 29h682q0 -80 -4 -117q-4 -29 -28 -29h-684z" />
<glyph unicode="&#x3e;" horiz-adv-x="817" d="M88 731q2 51 26.5 90t49 39t55.5 -14l500 -221q29 -47 29 -97q0 -61 -56 -90l-540 -264q-51 51 -58 111q0 35 29 51l407 199z" />
<glyph unicode="?" horiz-adv-x="602" d="M39 1366q0 33 82 61q78 27 174 27q135 0 209 -72q76 -74 76 -213q0 -115 -35 -196q-35 -80 -105 -172q-76 -98 -88 -123q-25 -43 -24 -96q0 -28 6 -62q2 -10 4 -27.5t4 -21.5q4 -12 -2 -27q-14 -18 -64 -20q-59 -4 -86 4q-31 61 -30 145q0 83 37 148q23 47 88 135 q61 84 88 143q29 63 28 129q0 158 -168 158q-94 0 -170 -51q-24 72 -24 131zM152 104q0 47 32 84q31 35 82 35q115 0 115 -119q0 -51 -31 -83.5t-84 -32.5q-114 -1 -114 116z" />
<glyph unicode="@" horiz-adv-x="1509" d="M96 541q0 436 189 647q187 209 522 209q311 0 461 -152q152 -156 151 -510q0 -731 -329 -731q-68 0 -125 47q-61 -49 -224 -49q-125 -2 -192.5 61.5t-63.5 253.5q6 334 260 334q78 0 119 -22q4 94 4 125q4 68 -28 92q-33 27 -95 26q-115 0 -204 -51q-18 35 -19 97 q4 29 19 40q94 53 260 54q115 0 172 -54q55 -53 53 -184l-10 -412q-4 -141 -10 -202q31 -12 65 -13q27 0 59 29q29 25 58 90q29 61 43 170q16 119 16 256q0 309 -96 434q-94 123 -348 123q-180 0 -295 -65q-114 -65 -178 -228q-63 -160 -64 -438q0 -188 21 -313 q23 -135 57 -215q35 -76 102 -131q61 -49 134 -68q74 -18 174 -18q274 0 477 88q45 -57 45 -119q0 -31 -59 -61q-49 -27 -179 -50q-115 -20 -270 -20q-121 0 -215 16q-92 16 -182 70q-92 55 -147.5 153.5t-92.5 272.5q-35 166 -35 418zM643 311q-2 -106 24.5 -145t86.5 -39 q98 0 102 109l8 292q-43 6 -71 7q-74 0 -111 -50q-35 -47 -39 -174z" />
<glyph unicode="A" horiz-adv-x="892" d="M10 2l365 1409q6 29 63 29q47 0 78 -6l367 -1403q4 -18 -10.5 -26.5t-61.5 -8.5q-45 0 -98 4l-88 365h-353l-79 -336q-4 -14 -9 -19q-8 -6 -22 -10q-20 -4 -47 -4q-44 0 -105 6zM307 516h283l-70 291q-53 229 -71 393q-25 -186 -72 -393z" />
<glyph unicode="B" horiz-adv-x="768" d="M88 0v1395q0 39 55 39h203q344 0 344 -318q0 -154 -59 -237q-55 -80 -137 -93q37 -2 77 -16q35 -12 76 -43q39 -29 64 -92q25 -61 24 -148q0 -246 -108.5 -366.5t-280.5 -120.5h-258zM258 145h92q84 0 137 80q53 82 54 248q0 145 -45 188.5t-144 43.5h-94v-560zM258 848 h100q68 0 109 59.5t41 175.5q0 203 -152 203h-98v-438z" />
<glyph unicode="C" horiz-adv-x="692" d="M63 657q0 203 25 353q23 143 64 233q35 80 94 135q55 51 108 68q49 14 113 14q193 0 192 -112q0 -51 -26 -101q-57 51 -133 51q-37 0 -76 -14q-35 -12 -72 -53q-33 -35 -59 -109q-20 -55 -37 -184q-16 -125 -16 -272q0 -197 28 -318q29 -119 70 -153q43 -37 106 -37 q113 0 189 63q25 -53 24 -100q0 -61 -71 -105q-70 -43 -183 -43q-65 0 -110 13q-43 12 -92 57q-47 45 -74 115q-29 80 -47 198q-17 113 -17 301z" />
<glyph unicode="D" horiz-adv-x="802" d="M90 0v1395q0 39 55 39h199q137 0 223 -56q84 -53 131 -200q47 -145 47 -387q0 -434 -100 -611q-102 -180 -299 -180h-256zM256 158h92q45 0 78 24q37 27 66 86q33 68 47 201q16 143 16 338q0 276 -47 373q-49 100 -158 100h-94v-1122z" />
<glyph unicode="E" horiz-adv-x="653" d="M90 0v1399q4 35 35 35h489q0 -98 -4 -127q-4 -23 -26 -23h-326v-428h307q0 -96 -4 -129q-4 -25 -26 -25h-277v-552h350q0 -98 -4 -127q-4 -23 -29 -23h-485z" />
<glyph unicode="F" horiz-adv-x="636" d="M90 0v1399q4 35 35 35h489q0 -94 -4 -123q-2 -20 -26 -21h-326v-434h307q0 -92 -4 -125q-4 -27 -26 -26h-277v-672q2 -33 -33 -33h-135z" />
<glyph unicode="G" horiz-adv-x="786" d="M55 684q0 231 29 391q29 154 90 236q61 78 137 110q74 31 183 31q98 0 159 -31q59 -29 59.5 -71.5t-22.5 -104.5q-59 49 -162 49q-160 0 -227.5 -131t-67.5 -469q0 -238 27 -356q29 -127 70 -160q45 -35 114 -35q88 0 119 50v507h-149v107q0 35 39 35h268l-2 -770 q-106 -90 -279 -90q-145 0 -225 55q-78 55 -119 209q-41 157 -41 438z" />
<glyph unicode="H" horiz-adv-x="835" d="M90 0v1399q0 29 21 31q29 4 145 4v-584h326v549q0 27 20 31q25 4 146 4v-1401q0 -27 -21 -29q-29 -4 -145 -4v696h-326v-663q0 -27 -20 -29q-29 -4 -146 -4z" />
<glyph unicode="I" horiz-adv-x="342" d="M88 0v1358q0 59 21 67q18 8 147 9v-1401q0 -27 -20 -29q-29 -4 -148 -4z" />
<glyph unicode="J" horiz-adv-x="624" d="M41 102q0 41 27 95q76 -68 168 -68q84 0 108.5 55.5t24.5 190.5v983q0 57 22 67q18 8 148 9v-1096q0 -166 -62 -262q-61 -94 -219 -94q-117 0 -168 34q-49 34 -49 86z" />
<glyph unicode="K" horiz-adv-x="802" d="M86 0v1399q0 29 20 31q29 4 148 4v-619l326 608q59 12 106 13q73 0 73 -31q0 -8 -5 -19l-330 -571q248 -186 328 -778q2 -23 -11 -33q-10 -8 -57 -8q-55 0 -117 6q-49 261 -98 412q-49 150 -131 237q-33 33 -84 56v-674q0 -27 -21 -29q-28 -4 -147 -4z" />
<glyph unicode="L" horiz-adv-x="647" d="M88 0v1386q0 35 21 41q22 6 147 7v-1278h352v-123q0 -33 -35 -33h-485z" />
<glyph unicode="M" horiz-adv-x="999" d="M88 0v1399q0 23 8 28q10 6 27 7h121l194 -619l66 -229q39 156 59 223l180 590q10 35 33 35h135v-1401q0 -25 -22 -29q-29 -4 -148 -4l7 498l36 604q-117 -424 -131 -459l-108 -311q-4 -16 -23 -17h-71l-107 328q0 2 -14.5 51l-48 165l-70.5 247v-2q35 -365 39 -598 l4 -473q0 -27 -23 -29q-32 -4 -143 -4z" />
<glyph unicode="N" horiz-adv-x="907" d="M88 0v1399q0 35 35 35h127l229 -553q45 -119 195 -578v6q-20 166 -21 609v481q0 29 21 31q29 4 147 4v-1401q0 -33 -35 -33h-124l-234 563q-39 92 -195 580q20 -211 21 -613v-497q0 -27 -21 -29q-28 -4 -145 -4z" />
<glyph unicode="O" horiz-adv-x="874" d="M61 725q0 401 93 563q92 164 299 164q205 0 284 -156q80 -157 80 -565q0 -414 -90 -581.5t-297 -167.5q-138 0 -215 61q-74 59 -115 225q-39 158 -39 457zM248 684q0 -292 43 -412q43 -121 147 -120q113 0 156 131q43 129 43 444q0 313 -39 432q-41 123 -149.5 123 t-153.5 -133q-47 -137 -47 -465z" />
<glyph unicode="P" horiz-adv-x="735" d="M88 0v1399q0 35 35 35h203q197 0 286.5 -96.5t89.5 -309.5q0 -238 -104 -342t-272 -104h-72v-549q0 -27 -21 -29q-28 -4 -145 -4zM254 735h90q88 0 131 74t43 238q0 242 -162 241h-102v-553z" />
<glyph unicode="Q" horiz-adv-x="874" d="M61 725q0 401 93 563q92 164 299 164q205 0 284 -156q80 -157 80 -565q0 -336 -57.5 -506t-181.5 -219q14 -82 38 -115q25 -35 72 -34q74 0 127 34q25 -37 25 -90q0 -45 -57.5 -63.5t-127.5 -18.5q-106 0 -170 62q-65 61 -98 203q-125 10 -190 75q-70 70 -103 228 q-33 155 -33 438zM248 684q0 -292 43 -412q43 -121 147 -120q113 0 156 131q43 129 43 444q0 313 -39 432q-41 123 -149.5 123t-153.5 -133q-47 -137 -47 -465z" />
<glyph unicode="R" horiz-adv-x="761" d="M88 0v1399q0 35 35 35h203q197 0 286.5 -96.5t89.5 -309.5q0 -299 -178 -401q172 -227 193 -590q0 -25 -14.5 -33t-69.5 -8l-98 4q-25 389 -168 584q-10 -2 -41 -2h-72v-549q0 -27 -21 -29q-28 -4 -145 -4zM254 735h90q88 0 131 70q43 72 43 231q0 252 -162 252h-102 v-553z" />
<glyph unicode="S" horiz-adv-x="731" d="M51 102q0 63 43 119q82 -72 211 -71q201 0 201 208q0 72 -25 131q-23 53 -94 136l-207 239q-127 158 -127 295q0 133 92 213q94 82 261 82q268 0 268 -102q0 -51 -41 -97q-63 51 -201 52q-92 0 -145.5 -37t-53.5 -105q0 -94 95 -202l221 -252q78 -94 108 -170 q29 -72 29 -176q0 -172 -86 -278.5t-281 -106.5q-127 0 -198 36q-70 37 -70 86z" />
<glyph unicode="T" horiz-adv-x="761" d="M16 1278v121q0 35 35 35h697v-123q0 -33 -35 -33h-252v-1245q0 -27 -21 -29q-29 -4 -145 -4v1278h-279z" />
<glyph unicode="U" horiz-adv-x="892" d="M88 418v981q0 29 21 31q29 4 151 4v-1020q0 -141 39 -211t158 -70q113 0 180 37v1229q0 27 22 31q29 4 146 4v-1381q-47 -31 -139 -51q-100 -23 -209 -22q-96 0 -164 24q-74 27 -109 59q-39 35 -61 99q-23 61 -29 117q-6 57 -6 139z" />
<glyph unicode="V" horiz-adv-x="858" d="M12 1423q4 10 39 11h135l170 -793q16 -88 82 -500q37 299 74 500l152 743q2 27 12 39q8 10 31 11h145l-315 -1440q-51 -8 -140 -8q-70 0 -98 118q-78 311 -285 1280q-5 15 -5 26q0 7 3 13z" />
<glyph unicode="W" horiz-adv-x="1339" d="M10 1411q0 12 10 19q6 4 29 4h137l148 -793q35 -197 61 -461h13q10 223 53 461l125 674q4 31 12 39q10 10 31 10h119l143 -723q29 -143 61 -459h13q23 279 51 459l131 743q2 27 12 39q8 10 31 11h141l-268 -1440q-109 -10 -139 -10q-68 0 -90 116l-105 459 q-18 90 -63 467q-49 -399 -60 -465l-112 -567q-59 -8 -152 -8q-59 0 -84 127l-244 1271q-4 21 -4 27z" />
<glyph unicode="X" horiz-adv-x="866" d="M18 0l312 741l-256 664q-6 20 16 25q33 4 180 4l82 -232q43 -119 101 -307q51 170 102 307l78 205q6 18 29 23q29 4 151 4l-264 -680l293 -725q5 -10 5 -16q0 -13 -22 -13h-182l-111 276q-59 154 -108 299q-68 -195 -113 -299l-110 -256q-12 -20 -39 -20h-144z" />
<glyph unicode="Y" horiz-adv-x="743" d="M12 1407q-2 5 -1 8q0 12 16 15q29 4 174 4l82 -281q27 -84 63 -240q33 -141 37 -188q2 33 39 186q16 72 63 242l72 250q10 25 31 27q29 4 149 4l-276 -842v-559q0 -27 -21 -29q-29 -4 -145 -4v580z" />
<glyph unicode="Z" horiz-adv-x="786" d="M31 66q0 35 16 73l514 1145h-381q-72 0 -90 -6v121q0 35 35 35h612q16 -29 17 -56q0 -47 -17 -73l-522 -1155h395q84 0 121 14v-131q0 -33 -35 -33h-639q-26 21 -26 66z" />
<glyph unicode="[" horiz-adv-x="786" d="M248 -408v2038q0 34 18 43q16 8 109 8h395q0 -106 -8 -129q-8 -25 -47 -24h-299v-1780h352q0 -115 -8 -133q-10 -23 -47 -23h-465z" />
<glyph unicode="\" horiz-adv-x="673" d="M25 1522q-12 33 14 39q25 6 147 6l465 -1587q10 -29 -18 -35q-25 -6 -148 -6z" />
<glyph unicode="]" horiz-adv-x="786" d="M18 -410q0 106 9 129q10 25 47 25h299v1784h-353q0 115 9 133q10 23 47 22h465v-2041q0 -34 -19 -43q-16 -8 -110 -9h-394z" />
<glyph unicode="^" horiz-adv-x="878" d="M98 512l355 303l297 -260q29 -29 28 -55q0 -29 -22.5 -51.5t-57.5 -26.5l-264 178l-209 -154q-33 -20 -51 -20q-31 0 -53 25q-19 22 -23 61z" />
<glyph unicode="_" horiz-adv-x="770" d="M27 -223q0 89 6 117q6 29 28 28h682q0 -80 -4 -117q-4 -29 -28 -28h-684z" />
<glyph unicode="`" horiz-adv-x="348" d="M0 1376q10 51 29 86q23 41 49 41q12 0 127 -98q113 -98 145 -143q-25 -92 -63 -93q-10 0 -137 91q-125 87 -150 116z" />
<glyph unicode="a" horiz-adv-x="722" d="M59 291q0 197 74 266q72 70 199 70q98 0 149 -27v162q0 72 -30.5 96.5t-96.5 24.5q-166 0 -270 -45q-23 41 -23 94q0 41 22.5 57.5t119.5 36.5q86 18 192 18q137 0 195 -57q59 -59 59 -192v-109q0 -449 -12 -637q-115 -70 -285 -69q-63 0 -110 10q-51 10 -90 37 q-45 31 -70 96q-23 62 -23 168zM233 295q0 -104 33 -139q33 -37 101 -37q74 0 108 35q6 68 6 329q-39 18 -96 19q-74 0 -113 -41t-39 -166z" />
<glyph unicode="b" horiz-adv-x="782" d="M96 41v1386q0 53 29 66q27 12 137 12v-532q90 72 219 71q125 0 189 -94q61 -92 61 -309q0 -158 -26 -295q-25 -121 -64 -194q-37 -70 -92 -109q-53 -39 -105 -51q-49 -12 -108 -12q-163 0 -240 61zM262 154q33 -27 96 -27q31 0 60 18q31 20 59 64q31 46 49 147 q18 102 19 248q0 162 -33 225q-35 66 -106 66q-80 0 -144 -57v-684z" />
<glyph unicode="c" horiz-adv-x="638" d="M63 489q0 137 23 246q20 98 57 162q34 58 86 92q57 37 99 45q51 10 104 10q74 0 121 -26q49 -27 49 -66q0 -46 -18 -92q-63 37 -144 37q-39 0 -73.5 -14.5t-63.5 -51t-47 -124.5q-18 -86 -18 -218q0 -211 43 -286.5t139 -75.5q86 0 162 47q16 -61 16 -90 q0 -43 -65.5 -73.5t-163.5 -30.5q-106 0 -168 36q-63 39 -101 150q-37 112 -37 323z" />
<glyph unicode="d" horiz-adv-x="788" d="M66 475q0 283 88 428q86 141 227 141q92 0 145 -40v426q0 51 29 63q27 12 137 12v-1464q-127 -61 -293 -61q-66 0 -104 8q-49 10 -88 37q-49 33 -76 81q-29 53 -47 148q-18 92 -18 221zM252 494q0 -215 37 -289q39 -76 117 -76q74 0 120 31v712q-33 27 -94 27 q-180 1 -180 -405z" />
<glyph unicode="e" horiz-adv-x="737" d="M63 459q0 193 29 307q29 119 88 180q51 53 113 78q53 20 133 20q260 0 260 -329q0 -160 -22 -266q-170 -33 -428 -33q6 -160 49 -217.5t141 -57.5q125 0 233 64q14 -41 15 -113q0 -47 -82 -80q-80 -33 -201 -32q-72 0 -133 20q-53 18 -100 68q-47 51 -72 147 q-23 90 -23 244zM238 551h35q152 0 241 22q10 51 10 123q-2 113 -26.5 158t-89.5 45q-154 0 -170 -348z" />
<glyph unicode="f" horiz-adv-x="520" d="M25 883q0 100 6 120.5t37 20.5h98v123q0 114 31 190q31 78 84 113q55 37 108 49q61 14 121 14q190 0 190 -83q0 -49 -18 -93q-59 25 -145 25q-96 0 -150 -39q-55 -41 -55 -162v-137h184q0 -104 -4 -119q-6 -23 -31 -22h-149v-850q0 -33 -33 -33h-133v883h-141z" />
<glyph unicode="g" horiz-adv-x="802" d="M45 -180q0 141 156 246q-61 18 -95 45q-34 28 -30 67q4 80 131 184q-127 84 -127 308q0 375 340 374q43 0 102 -16h246q16 -29 16 -80q0 -63 -57 -63q-23 0 -74 10q78 -78 78 -221q0 -358 -332 -359q-61 0 -92 9q-53 -53 -53 -91q0 -23 45 -34q33 -8 147 -23l50 -6 q139 -23 202 -72q68 -53 68 -168q0 -141 -100.5 -237t-292.5 -96q-328 0 -328 223zM217 -141q0 -52 37 -80q39 -29 135 -29q100 0 154 47q55 49 55 111q0 68 -47 94q-49 29 -186 37q-4 0 -37 4q-111 -83 -111 -184zM256 674q0 -121 30.5 -176.5t121.5 -55.5q156 0 155 271 q0 209 -149 209q-74 0 -115 -60q-43 -61 -43 -188z" />
<glyph unicode="h" horiz-adv-x="776" d="M92 0v1430q0 51 27 63q29 12 139 12v-540q92 80 229 79q125 0 168 -65q45 -68 45 -205v-741q0 -25 -24 -29q-33 -4 -148 -4v727q0 78 -24.5 121t-91.5 43q-90 0 -154 -57v-801q0 -25 -22 -29q-29 -4 -144 -4z" />
<glyph unicode="i" horiz-adv-x="356" d="M94 0v948q0 51 29 64q31 12 141 12v-991q0 -25 -22 -29q-29 -4 -148 -4zM96 1350q2 123 97 123q47 0 65 -27q17 -25 17 -76q0 -8 -1 -16q0 -133 -94 -133q-84 0 -84 129z" />
<glyph unicode="j" horiz-adv-x="374" d="M-209 -293q0 52 25 86q72 -41 172 -41q76 0 100 43q23 39 23 158v995q0 51 28.5 63.5t136.5 12.5v-1098q0 -158 -57 -241q-59 -86 -211 -86q-217 -1 -217 108zM106 1350q4 123 97 123q47 0 65 -27q17 -25 17 -76v-16q0 -133 -95 -133q-84 0 -84 129z" />
<glyph unicode="k" horiz-adv-x="778" d="M94 0v1430q0 51 29 63t139 12v-555q109 94 256 94q174 0 174 -176q0 -182 -170 -317q78 -33 135 -125q55 -89 68 -221q2 -14 2 -68q0 -49 -6 -104q-4 -23 -21 -29q-14 -4 -168 -4q8 84 9 131q0 70 -11 121q-18 119 -67 170q-41 43 -89 43q-11 0 -22 -2q-10 -2 -39 -14 q-33 -14 -37 -17l-14 -8v-391q0 -27 -20 -29q-29 -4 -148 -4zM262 543q246 100 246 268q0 84 -76 84q-90 0 -170 -98v-254z" />
<glyph unicode="l" horiz-adv-x="352" d="M94 0v1430q0 51 29 63t137 12v-1472q0 -27 -20 -29q-29 -4 -146 -4z" />
<glyph unicode="m" horiz-adv-x="1150" d="M94 0v977q152 68 309 67q123 0 185 -63q113 63 252 63q143 0 186 -67.5t43 -220.5v-723q0 -25 -22 -29q-29 -4 -144 -4v758q0 80 -20 108q-22 31 -80 31q-78 0 -137 -39v-825q0 -27 -21 -29q-29 -4 -145 -4v797q-4 59 -21 80q-18 23 -80 22q-70 0 -139 -35v-831 q0 -25 -22 -29q-29 -4 -144 -4z" />
<glyph unicode="n" horiz-adv-x="780" d="M92 0v975q158 70 324 69q158 0 225 -63q63 -61 64 -211v-737q0 -25 -23 -29q-29 -4 -150 -4v721q0 98 -24 139q-25 39 -98 39q-84 0 -152 -37v-829q0 -25 -22 -29q-29 -4 -144 -4z" />
<glyph unicode="o" horiz-adv-x="751" d="M49 512q0 532 340 532q170 0 244 -112.5t74 -413.5q0 -279 -84 -409q-83 -129 -252 -129q-84 0 -140 18q-57 18 -100 74q-45 59 -63 164q-19 107 -19 276zM229 508q0 -166 19 -252q18 -84 47 -111q28 -25 80 -24q72 0 112 86q39 84 39 309q0 233 -32 307q-33 76 -111 76 q-74 0 -115 -84q-39 -80 -39 -307z" />
<glyph unicode="p" horiz-adv-x="782" d="M94 -332v1295q127 82 299 81q162 0 248 -94q86 -95 86 -332q0 -639 -305 -638q-104 0 -162 57v-426q-35 -14 -86 -14q-41 0 -61 16q-19 15 -19 55zM260 197q40 -68 111 -68q172 0 172 471q0 174 -37 236q-39 63 -121 63q-72 0 -125 -39v-663z" />
<glyph unicode="q" horiz-adv-x="796" d="M63 446q0 313 115 457q113 141 305 141q131 0 219 -63v-1315q0 -45 -18 -57q-16 -12 -80 -15q-35 0 -69 7v469q-61 -90 -195 -90q-55 0 -98 18q-47 20 -88 63q-43 45 -68 146q-23 89 -23 239zM252 451q0 -100 12 -168q12 -72 35 -99q27 -35 49 -45q29 -14 53 -14 q94 0 134 104v641q-35 29 -95 29q-95 0 -141 -104q-47 -106 -47 -344z" />
<glyph unicode="r" horiz-adv-x="536" d="M92 0v952q133 92 279 92q143 0 143 -86q0 -52 -18 -98q-46 25 -99 25q-78 0 -135 -47l-2 -805q0 -25 -22 -29q-29 -4 -146 -4z" />
<glyph unicode="s" horiz-adv-x="704" d="M61 84q0 49 29 96q88 -51 205 -51q82 0 123 33q43 35 43 94q0 86 -82 160l-199 170q-117 94 -117 217q0 113 84 178q82 63 250 63q94 0 158 -22q66 -23 82 -45q18 -25 18 -47q0 -45 -37 -84q-90 53 -200 53q-76 0 -119 -24.5t-43 -73.5q0 -59 82 -127l190 -154 q65 -65 93 -123q29 -61 28 -133q0 -135 -90 -209q-92 -76 -248 -75q-250 0 -250 104z" />
<glyph unicode="t" horiz-adv-x="593" d="M37 881q0 96 6 120q6 23 31 23h102v311q0 39 29 49q25 8 139 9v-369h209q0 -92 -4 -121q-4 -23 -29 -22h-176v-596q0 -66 2 -84q4 -31 19 -51q20 -27 53 -27q57 0 119 31q12 -47 12 -82q0 -92 -176 -92q-123 0 -160 73.5t-37 231.5v596h-139z" />
<glyph unicode="u" horiz-adv-x="796" d="M90 319v670q0 29 21 31q29 4 151 4v-719q0 -102 26.5 -141t110.5 -39q82 0 138 37v827q0 29 20 31q29 4 145 4v-971q-133 -74 -305 -73q-176 0 -241 79q-66 82 -66 260z" />
<glyph unicode="v" horiz-adv-x="702" d="M37 973q-2 10 -2 18q0 22 18 27q25 6 162 6l66 -328q10 -51 38 -225q23 -131 31 -211l10 -82h5q31 279 75 520l56 289q2 27 26 33q14 4 150 4l-236 -1030q-31 -6 -117 -6q-49 0 -73 100z" />
<glyph unicode="w" horiz-adv-x="1103" d="M31 989q-2 25 24 31q16 4 158 4l61 -334q45 -240 72 -497h12q47 324 58 374l63 394q4 23 13 28q9 6 43 6h108l80 -430q14 -61 31 -162l24 -151l8 -59h11q16 233 63 497l53 297q2 27 25 33q14 4 139 4q-213 -1030 -221 -1030q-37 -6 -106 -6q-27 0 -52 28q-29 33 -36 78 l-27 137q-47 225 -74 508q-33 -305 -74 -508l-47 -237q-86 -6 -139 -6q-47 0 -72 100z" />
<glyph unicode="x" horiz-adv-x="837" d="M31 0l288 535l-247 462q-10 20 8 23q29 4 166 4l76 -139q74 -145 108 -234q59 135 113 234l61 110q8 20 35 25q33 4 152 4l-263 -479l273 -506q6 -13 6 -21q0 -9 -8 -12q-18 -6 -183 -6l-75 133q-74 137 -133 275q-76 -174 -129 -275l-58 -100q-10 -27 -39 -29 q-40 -4 -151 -4z" />
<glyph unicode="y" horiz-adv-x="727" d="M-8 -315q0 61 24 94q45 -33 129 -33q109 0 150 221l-246 1012q-10 33 8.5 39t153.5 6l111 -487q20 -113 20 -117q8 -51 16 -113l13 -88q6 -43 6 -45q29 244 49 365l90 436q6 37 29 43q25 6 151 6l-252 -1079q-47 -195 -108 -267q-65 -74 -178 -73q-166 0 -166 80z" />
<glyph unicode="z" horiz-adv-x="681" d="M41 82q0 35 14 63l398 738h-209q-127 0 -187 -11q-6 37 -6 80q0 72 53 72h521q18 -16 18 -51t-20 -82l-385 -737h180q121 0 215 22q6 -28 6 -74q-2 -53 -16 -79q-12 -23 -52 -23h-501q-29 25 -29 82z" />
<glyph unicode="{" horiz-adv-x="563" d="M84 600q0 55 35 84q27 18 49 35q12 10 29 51q14 37 14 104q0 84 -14.5 213.5t-14.5 194.5q0 238 318 242q31 -41 30 -103q0 -53 -28 -59q-150 -12 -150 -164q0 -33 10.5 -172t10.5 -203q0 -92 -29 -139q-27 -45 -82 -70q55 -20 84 -65q27 -41 27 -129q0 -66 -10.5 -203 t-10.5 -172q0 -108 37 -147q35 -39 127 -52q6 -39 6 -63q0 -90 -57 -90q-147 0 -217 69q-66 66 -66 207q0 78 14.5 199t14.5 205q0 80 -27 112q-29 35 -88 47q-12 28 -12 68z" />
<glyph unicode="|" horiz-adv-x="659" d="M248 -410v2034q0 33 22 39q20 6 146 6v-2038q0 -31 -23 -37q-14 -4 -145 -4z" />
<glyph unicode="}" horiz-adv-x="563" d="M37 -203q0 51 31 58q147 12 147 163q0 31 -10 170.5t-10 202.5q0 94 28 141q29 49 80 70q-53 20 -82 66q-27 41 -26 129q0 66 10 203t10 171q0 104 -39 148q-37 39 -125 51q-8 31 -8 64q0 90 61 90q143 0 213 -70q68 -68 68 -207q0 -78 -14.5 -198.5t-14.5 -204.5 q0 -80 27 -113q29 -35 86 -47q14 -31 14 -68q0 -59 -37 -81q-34 -22 -49 -37q-18 -18 -28 -54q-12 -39 -13 -102q0 -88 14.5 -215t14.5 -193q0 -123 -86 -182q-88 -59 -231 -59q-31 46 -31 104z" />
<glyph unicode="~" horiz-adv-x="817" d="M23 545q27 49 104 90q72 39 160 39q74 0 143 -43q74 -45 123 -45q84 0 143 71q39 27 70 -4q33 -33 35 -88q-37 -52 -105 -92q-66 -39 -157 -39q-80 0 -152 45t-117 45t-102 -37q-61 -39 -74 -41q-28 -3 -49 25q-18 25 -22 74z" />
<glyph unicode="&#xa2;" d="M170 467q0 498 264 565v178q0 41 35 55.5t117 14.5v-240q39 -8 86 -30q35 -18 35 -37q0 -76 -19 -121q-66 37 -137 37q-39 0 -78 -15q-35 -12 -67.5 -51t-51.5 -127q-18 -90 -18 -223q0 -152 22 -229q20 -74 60 -92q37 -18 108 -19q84 0 160 47q16 -53 16 -104 q0 -31 -49 -60q-51 -29 -114 -34v-189q0 -41 -35 -53q-34 -12 -117 -12v260q-113 14 -166 118q-51 101 -51 361z" />
<glyph unicode="&#xa3;" horiz-adv-x="747" d="M31 567q0 89 6 117q6 29 26 29h95q10 272 92 389t237 117q88 0 144 -27q59 -29 59 -82q0 -49 -20 -102q-68 43 -146 43q-94 0 -145 -72q-51 -74 -55 -266h266q0 -98 -4 -117q-6 -29 -29 -29h-233q0 -184 16 -401l319 -14q12 -33 13 -76q0 -76 -105 -76h-387 q-20 258 -22 567h-127z" />
<glyph unicode="&#xa5;" d="M61 1407q-6 20 15 23q29 4 174 4l80 -281q92 -295 98 -389q8 109 102 389l76 250q10 25 31 27q29 4 149 4l-194 -596h182q0 -88 -10 -111q-12 -29 -53 -29h-166l-35 -108v-90h266q0 -80 -12 -111q-12 -29 -53 -29h-201v-327q0 -25 -18 -29q-25 -4 -148 -4v360h-266 q0 78 12 109t53 31h201v80l-41 118h-225q0 80 12 111q12 29 53 29h113z" />
<glyph unicode="&#xa9;" horiz-adv-x="964" d="M72 1108q0 449 424 448q207 0 303 -102q94 -100 94 -342q0 -225 -107 -340q-108 -117 -307 -117q-206 0 -307 105q-100 102 -100 348zM199 1108q0 -180 69.5 -256t206.5 -76q131 0 211 82q80 84 80 256t-65.5 250t-206.5 78q-295 0 -295 -334zM322 1087q0 166 53 223.5 t135 57.5q31 0 61.5 -12.5t30.5 -20.5q0 -23 -12 -65q-43 14 -70 14q-22 0 -37 -6q-18 -8 -32 -25q-16 -18 -25 -59q-8 -39 -8 -109q0 -96 20.5 -122.5t69.5 -26.5q29 0 78 20q14 -27 14 -59q0 -16 -33 -29q-39 -14 -69 -14q-96 0 -138 43q-38 40 -38 190z" />
<glyph unicode="&#xad;" horiz-adv-x="567" d="M76 504q0 89 6 117q6 29 27 28h385q0 -98 -5 -117q-6 -29 -30 -28h-383z" />
<glyph unicode="&#xae;" horiz-adv-x="964" d="M72 1108q0 449 424 448q207 0 303 -102q94 -100 94 -342q0 -225 -107 -340q-108 -117 -307 -117q-206 0 -307 105q-100 102 -100 348zM199 1108q0 -180 69.5 -256t206.5 -76q131 0 211 82q80 84 80 256t-65.5 250t-206.5 78q-295 0 -295 -334zM360 854v508q0 10 15 10h90 q166 0 166 -149q0 -94 -70 -140q72 -70 84 -211q0 -20 -33 -20q-41 0 -51 2q-12 160 -74 205h-49v-189q0 -10 -12 -14q-9 -2 -66 -2zM438 1128h33q78 0 78 101q0 76 -74 76h-37v-177z" />
<glyph unicode="&#xb4;" horiz-adv-x="348" d="M0 1260q72 82 162 157q96 82 112 82q25 0 48 -41q23 -43 28 -84q-25 -33 -127 -104q-104 -74 -160 -105q-18 0 -32 23q-20 33 -25 49z" />
<glyph unicode="&#x2000;" horiz-adv-x="839" />
<glyph unicode="&#x2001;" horiz-adv-x="1681" />
<glyph unicode="&#x2002;" horiz-adv-x="839" />
<glyph unicode="&#x2003;" horiz-adv-x="1681" />
<glyph unicode="&#x2004;" horiz-adv-x="559" />
<glyph unicode="&#x2005;" horiz-adv-x="419" />
<glyph unicode="&#x2006;" horiz-adv-x="278" />
<glyph unicode="&#x2007;" horiz-adv-x="278" />
<glyph unicode="&#x2008;" horiz-adv-x="208" />
<glyph unicode="&#x2009;" horiz-adv-x="335" />
<glyph unicode="&#x200a;" horiz-adv-x="92" />
<glyph unicode="&#x2010;" horiz-adv-x="567" d="M76 504q0 89 6 117q6 29 27 28h385q0 -98 -5 -117q-6 -29 -30 -28h-383z" />
<glyph unicode="&#x2011;" horiz-adv-x="567" d="M76 504q0 89 6 117q6 29 27 28h385q0 -98 -5 -117q-6 -29 -30 -28h-383z" />
<glyph unicode="&#x2012;" horiz-adv-x="567" d="M76 504q0 89 6 117q6 29 27 28h385q0 -98 -5 -117q-6 -29 -30 -28h-383z" />
<glyph unicode="&#x2013;" horiz-adv-x="866" d="M76 504q0 89 6 117q6 29 27 28h684q0 -98 -5 -117q-6 -29 -30 -28h-682z" />
<glyph unicode="&#x2014;" horiz-adv-x="1431" d="M12 504q0 89 6 117q6 29 27 28h1376q0 -89 -6 -117q-6 -29 -29 -28h-1374z" />
<glyph unicode="&#x2018;" horiz-adv-x="356" d="M70 1298q0 100 59 215t94 115q49 0 66 -47q-41 -78 -51 -197q47 -29 47 -100q0 -47 -29 -76q-31 -31 -76 -30q-110 -1 -110 120z" />
<glyph unicode="&#x2019;" horiz-adv-x="356" d="M70 1219q41 78 51 196q-47 29 -47 101q0 45 28 77q27 29 74 29q113 0 113 -121q0 -102 -60 -217q-57 -113 -94 -113q-57 1 -65 48z" />
<glyph unicode="&#x201c;" horiz-adv-x="663" d="M70 1298q0 100 59 215t94 115q49 0 66 -47q-41 -78 -51 -197q47 -29 47 -100q0 -47 -29 -76q-31 -31 -76 -30q-110 -1 -110 120zM377 1298q0 101 61 215q61 115 92 115q53 0 66 -47q-41 -78 -51 -197q47 -29 47 -100q0 -43 -29 -76q-28 -31 -74 -30q-112 -1 -112 120z " />
<glyph unicode="&#x201d;" horiz-adv-x="663" d="M70 1219q41 78 51 196q-47 29 -47 101q0 45 28 77q27 29 74 29q113 0 113 -121q0 -102 -60 -217q-57 -113 -94 -113q-57 1 -65 48zM379 1219q40 80 49 196q-47 29 -47 101q0 49 28.5 77.5t75.5 28.5q113 0 113 -121q0 -104 -61.5 -217t-94.5 -113q-55 1 -63 48z" />
<glyph unicode="&#x2022;" horiz-adv-x="454" d="M84 582q0 66 41 112q39 45 108 45q154 0 154 -157q0 -70 -43 -113t-111 -43q-149 0 -149 156z" />
<glyph unicode="&#x2026;" horiz-adv-x="1067" d="M72 104q0 51 30 84q31 35 84 35q115 0 115 -119q0 -51 -30.5 -83.5t-84.5 -32.5q-114 -1 -114 116zM420 104q0 51 31 84q31 35 84 35q115 0 114 -119q0 -51 -30.5 -83.5t-83.5 -32.5q-115 -1 -115 116zM768 104q0 51 31 84q31 35 84 35q115 0 114 -119q0 -51 -30.5 -83.5 t-83.5 -32.5q-115 -1 -115 116z" />
<glyph unicode="&#x202f;" horiz-adv-x="335" />
<glyph unicode="&#x205f;" horiz-adv-x="419" />
<glyph unicode="&#x20ac;" d="M33 406q0 82 12 108q12 29 53 29h111v18q0 80 4 133h-180q0 80 12 111q12 29 53 29h129q23 133 62 210q43 86 96 125q55 41 107 56q55 16 114 16q66 0 119 -16q51 -16 66 -31q18 -18 18 -35q0 -78 -27 -112q-61 43 -135 43q-182 0 -237 -256h292q0 -78 -12 -109t-53 -31 h-246q-4 -53 -4 -127v-24h248q0 -76 -12.5 -106.5t-53.5 -30.5h-176q16 -162 62 -211q49 -51 137 -52q115 0 180 52q25 -47 25 -107q0 -33 -72 -70q-71 -37 -166 -36q-76 0 -131 16q-49 14 -98 57t-78 131q-31 94 -39 220h-180z" />
<glyph unicode="&#x2122;" horiz-adv-x="1028" d="M61 1354v61q0 14 19 19h389v-62q0 -18 -20 -18h-136v-553q0 -12 -10 -17q-6 -2 -74 -2v572h-168zM520 782v633q0 18 21 19h57l90 -258l39 -113q27 92 33 108l82 244q3 18 18 19h66v-633q0 -12 -11 -17q-6 -2 -75 -2l2 228q4 115 16 237l-51 -164l-57 -151q-2 -8 -11 -8 h-43l-59 159l-51 172q16 -186 16 -245l2 -209q0 -14 -12 -17q-9 -2 -72 -2z" />
<glyph unicode="&#xe000;" horiz-adv-x="1025" d="M0 1025h1025v-1025h-1025v1025z" />
<glyph unicode="&#xfb01;" horiz-adv-x="821" d="M20 883q0 100 6.5 120.5t36.5 20.5h99v123q0 119 31 194q29 72 90 111q59 37 114 49q57 12 133 12q236 0 236 -100q0 -47 -16 -96q-92 45 -213 45q-96 0 -154 -41q-55 -39 -55 -170v-127h143q0 -98 -6 -119q-6 -23 -29 -22h-108v-850q0 -33 -33 -33h-133v883h-142zM563 0 v948q0 51 29 64q31 12 139 12v-991q0 -25 -22 -29q-29 -4 -146 -4z" />
<glyph unicode="&#xfb02;" horiz-adv-x="841" d="M20 883q0 100 6.5 120.5t36.5 20.5h99v123q0 365 321 364q152 0 267 -69v-1409q0 -33 -33 -33h-133v1360q-41 14 -90 14q-31 0 -56 -6q-27 -6 -53 -25q-28 -18 -43 -61q-14 -41 -14 -108v-150h164q0 -104 -5 -119q-6 -23 -30 -22h-129v-850q0 -33 -35 -33h-131v883h-142z " />
<glyph unicode="&#xfb03;" horiz-adv-x="1239" d="M20 883q0 100 6.5 120.5t36.5 20.5h99v141q0 338 321 338q111 0 205 -57q89 68 258 67q236 0 236 -100q0 -45 -19 -96q-92 45 -213 45q-98 0 -155 -41q-53 -39 -54 -170v-127h144q0 -98 -6 -119q-6 -23 -29 -22h-109v-850q0 -33 -32 -33h-134v883h-247v-850 q0 -33 -35 -33h-131v883h-142zM328 1024h247v123q0 111 29 186q-53 29 -121 29q-156 0 -155 -178v-160zM977 0v948q0 51 29 64q31 12 141 12v-991q0 -27 -21 -29q-28 -4 -149 -4z" />
<glyph unicode="&#xfb04;" horiz-adv-x="1259" d="M20 883q0 100 6.5 120.5t36.5 20.5h99v141q0 338 321 338q111 0 201 -55q82 66 213 65q150 0 270 -69v-1411q0 -27 -20 -29q-29 -4 -148 -4v1350q-37 14 -90 14q-37 0 -61 -6q-29 -6 -51 -23q-25 -16 -41 -59q-14 -37 -15 -105v-147h142q0 -98 -6 -119q-6 -23 -29 -22 h-107v-850q0 -33 -32 -33h-134v883h-247v-850q0 -33 -35 -33h-131v883h-142zM328 1024h247v123q0 111 29 186q-53 29 -121 29q-156 0 -155 -178v-160z" />
</font>
</defs>
</svg>
